Dalam STB yang saya jual, terdapat antar muka USB pada bagian depan, itu adalah fasilitas untuk merekam siaran televisi melalui perangkat memori USB hanya dengan menekan tombol Record. Dan selain untuk merekam, antar muka USB juga bisa untuk memutar video hasil rekaman tadi, video dengan format tertentu seperti sudah tertulis pada spesifikasi, foto, dan musik. Disini saya telah mencobanya dengan media rekam sebagai berikut:

1. USB Flash Disk
Adata 2GB model lama
Adata 2GB model lama

2. USB External HDD
Enclosure merk PROBOX HDD Hitachi 2,5 inch 320GB Tanpa Power Supply
a. Enclosure merk PROBOX
HDD Hitachi 2,5 inch 320GB
Tanpa Power Supply


Buffalo USB 3.0 Ext. HDD 1 TB Dengan Power Supply 12 VDC
b. Buffalo USB 3.0 Ext. HDD 1 TB
Dengan Power Supply 12 VDC

Ketiga jenis perangkat memory tersebut di atas telah saya coba dan berhasil merekam dengan baik. Kemudian untuk bersaran file hasil rekaman adalah dalam durasi 1 menit memakan memori sebesar 30 MB. Format file hasil rekaman adalah *.mts, dan dapat dimainkan dengan Windows Media Player Classic, dan bisa juga saya unggah ke Youtube. Tentu saja jika Anda menghendakinya, Anda bisa meng-convert dalam format apapun menggunakan Video Converter Software.

Apa itu MTS ? Berikut penjelasannya:

MTS dan M2TS, keduanya adalah ekstensi file untuk format video digital kamera perekam
definisi tinggi AVCHD (Advanced Video Codec High Definition). AVCHD bersama-sama didirikan oleh Sony Corporation dan Panasonic Corporation pada tahun 2006 untuk digunakan dalam camcorder tapeless digital mereka.

AVCHD Format rekaman video menggunakan pengkodean (codec) MPEG-4 AVC/H.264 video, dan audio dalam Dolby AC-3. Selain pengkodean video dan audio, AVCHD juga mengandung menu navigasi, slide dan sub judul. Menu navigasi memungkinkan akses ke video individu dari layar intro umum, slide menunjukkan terdiri dari urutan AVC frame disertai dengan trek audio latar belakang, dan sub judul yang digunakan untuk rekaman timestamp.

Meskipun kedua MTS dan M2TS adalah ekstensi file untuk AVCHD yang sama dan keduanya mendukung 720p dan 1080i format video HD, ada sedikit perbedaan antara keduanya. Dalam file M2TS, file video disimpan dalam definisi Blue-ray Format BDAV tinggi. Video data pada disk Blue-ray dapat disimpan dalam salah satu dari tiga video codec - MPEG2 Bagian 2, H.264/MPEG-4 AVC, atau SMPTE VC-1, dan data audio baik Dolby digital, DTS, atau yang terkompresi Linear PCM. Ekstensi file M2TS ditulis sebagai 'xxxxx.m2ts' di mana 'xxxxx' adalah digit angka lima sesuai dengan klip audio visual.

Baik MTS dan file M2TS dapat dimainkan di CyberLinkPower DVD, CyberLinkPower Director, Sony Picture Motion Browser, Sony Vegas Movie Studio Platinum.


Berikut ini saya sertakan kopian Properties di Windows Media Player Classic pada Video hasil rekaman:

General
  • ID: 1 (0x1)
  • Complete name: H:\HBPVR\METRO_TV-01012000-0703.mts
  • Format: BDAV
  • Format/Info: Blu-ray Video
  • File size: 44.2 MiB
  • Duration: 1mn 20s
  • Overall bit rate: 4 577 Kbps

Video
  • ID: 259 (0x103)
  • Menu ID: 257 (0x101)
  • Format: AVC
  • Format/Info: Advanced Video Codec
  • Format profile: Main@L3.0
  • Format settings, CABAC: Yes
  • Format settings, ReFrames: 3 frames
  • Codec ID: 27
  • Duration: 1mn 20s
  • Bit rate: 4 130 Kbps
  • Width: 720 pixels
  • Height: 576 pixels
  • Display aspect ratio: 4:3
  • Frame rate: 25.000 fps
  • Standard: PAL
  • Color space: YUV
  • Chroma subsampling: 4:2:0
  • Bit depth: 8 bits
  • Scan type: MBAFF
  • Bits/(Pixel*Frame): 0.398
  • Stream size: 39.8 MiB (90%)
  • Color primaries: BT.470-6 System B, BT.470-6 System G, BT.601-6 625, BT.1358 625, BT.1700 625 PAL, BT.1700 625 SECAM
  • Transfer characteristics: BT.470-6 System B, BT.470-6 System G
  • Matrix coefficients: BT.470-6 System B, BT.470-6 System G, BT.601-6 625, BT.1358 625, BT.1700 625 PAL, BT.1700 625 SECAM, IEC 61966-2-4 601

Audio
  • ID: 258 (0x102)
  • Menu ID: 257 (0x101)
  • Format: MPEG Audio
  • Format version: Version 1
  • Format profile: Layer 2
  • Codec ID: 4
  • Duration: 1mn 20s
  • Bit rate mode: Constant
  • Bit rate: 256 Kbps
  • Channel(s): 2 channels
  • Sampling rate: 48.0 KHz
  • Compression mode: Lossy
  • Delay relative to video: -625ms
  • Stream size: 2.47 MiB (6%)

Menu
  • ID: 256 (0x100)
  • Menu ID: 257 (0x101)
  • Duration: 1mn 20s
  • List: 258 (0x102) (MPEG Audio) / 259 (0x103) (AVC)
Demikian semoga bermanfaat.


sponsored link

Post a Comment Blogger

  1. Anonymous17/6/13 22:36

    thanks mas bro, ada sdikit pencerahan, btw knpa hasil rekamannya di split per 21 menit/ 511 mb, apa ada setingannya biar jdi stu file aja???

    ReplyDelete
    Replies
    1. ada settingnya gan, coba dari Menu> USB> PVR Setting> Media Recording, disitu ada pilihan mau recordnya diseplit berapa giga gitu, mulai dari 0.5Gb sampai 4 Gb begitu..

      Delete
  2. wah itu 4000 Kbps kegedean untuk AVC 576p... 2000 Kbps aja cukup :) btw itu hasil rekamannya murni mencaplok streaming TV atau diencoding lagi oleh set top box nya gan?

    ReplyDelete
    Replies
    1. Sepertinya murni dari streaming gan, krn prosesnya langsung, sy ga melihat proses rendernya jg. Bisa jadi memang itu spec dari transmitternya...CMIIW

      Delete
  3. recordnya pake getmecom atau polytron mas bro

    ReplyDelete
  4. Saya pakai Plytron, merekam dengan timer, hasilnya sempurna dan bisa dimainkan di windows. Tapi pas saya mau mainkan di home theater SONY gak bisa kenapa ya?

    ReplyDelete
    Replies
    1. harus di convert dulu videonya dengan software converter sesuai spesifikasi film yang bisa dimainkan di HT Sony tersebut gan

      Delete
  5. Krbetulan sy tinggal di bantul, fimsna sy bisa temui agan...kalau harga vovok saya ambil 1..

    ReplyDelete

 
Top